General

Unique ID : 233689060299879670652720804463958920173 (0xAFCEE03A5FE3E31CBF5FE6B20B398BED)
Complete name : /movies/m/Mother_2017_1080p_BrRip_10bit_8CH_x265_PSA_30NAMA.mkv
Format : Matroska
Format version : Version 4 / Version 2
File size : 1.37 GiB
Duration : 2 h 1 min
Overall bit rate : 1 613 kb/s
Movie name : PSArips.com | Mother!.2017.1080p.10bit.BluRay.8CH.x265.HEVC-PSA
Encoded date : UTC 2017-12-13 15:35:25
Writing application : mkvmerge v18.0.0 ('Apricity') 64-bit
Writing library : libebml v1.3.5 + libmatroska v1.4.8

Video

ID : 1
Format : HEVC
Format/Info : High Efficiency Video Coding
Format profile : Main 10@L4@Main
Codec ID : V_MPEGH/ISO/HEVC
Duration : 2 h 1 min
Bit rate : 1 352 kb/s
Width : 1 920 pixels
Height : 808 pixels
Display aspect ratio : 2.40:1
Frame rate mode : Constant
Frame rate : 23.976 (24000/1001) FPS
Color space : YUV
Chroma subsampling : 4:2:0
Bit depth : 10 bits
Bits/(Pixel*Frame) : 0.036
Stream size : 1.14 GiB (84%)
Default : Yes
Forced : No

Audio

ID : 2
Format : AAC
Format/Info : Advanced Audio Codec
Format profile : HE-AAC / LC
Format settings : Explicit
Codec ID : A_AAC-2
Duration : 2 h 1 min
Bit rate : 259 kb/s
Channel(s) : 7 channels
Channel(s)_Original : 8 channels
Channel positions : Front: L C R, Side: L R, Back: L R, LFE
Sampling rate : 48.0 kHz / 24.0 kHz
Frame rate : 23.438 FPS (1024 SPF)
Compression mode : Lossy
Delay relative to video : 31 ms
Stream size : 224 MiB (16%)
Default : Yes
Forced : No

Text #1

ID : 3
Format : UTF-8
Codec ID : S_TEXT/UTF8
Codec ID/Info : UTF-8 Plain Text
Duration : 1 h 55 min
Bit rate : 38 b/s
Count of elements : 1277
Stream size : 32.6 KiB (0%)
Title : ENG
Language : English
Default : Yes
Forced : No

Text #2

ID : 4
Format : UTF-8
Codec ID : S_TEXT/UTF8
Codec ID/Info : UTF-8 Plain Text
Duration : 1 h 54 min
Bit rate : 45 b/s
Count of elements : 1522
Stream size : 37.9 KiB (0%)
Title : ENG SDH
Language : English
Default : No
Forced : No

Menu

00:00:00.000 : :Chapter 1
00:06:22.600 : :Chapter 2
00:10:21.200 : :Chapter 3
00:15:59.600 : :Chapter 4
00:21:38.000 : :Chapter 5
00:24:59.600 : :Chapter 6
00:31:31.200 : :Chapter 7
00:38:29.400 : :Chapter 8
00:44:57.200 : :Chapter 9
00:49:36.000 : :Chapter 10
00:53:43.600 : :Chapter 11
01:02:19.800 : :Chapter 12
01:08:25.000 : :Chapter 13
01:16:52.200 : :Chapter 14
01:20:31.200 : :Chapter 15
01:28:27.000 : :Chapter 16
01:38:09.000 : :Chapter 17
01:45:52.800 : :Chapter 18
01:49:48.800 : :Chapter 19
01:56:21.200 : :Chapter 20