General

Unique ID : 242170153024406257152109867031820213605 (0xB63046621E14D0BC9DB44B22F42B9D65)
Complete name : /movies/m/Mother_2017_1080p_BluRay_Remux_Atmos_KRaLiMaRKo_30NAMA.mkv
Format : Matroska
Format version : Version 4 / Version 2
File size : 28.2 GiB
Duration : 2 h 1 min
Overall bit rate mode : Variable
Overall bit rate : 33.3 Mb/s
Movie name : Mother! 2017 1080p Blu-ray Remux AVC Atmos - KRaLiMaRKo
Encoded date : UTC 2017-12-11 10:30:24
Writing application : mkvmerge v18.0.0 ('Apricity') 64-bit
Writing library : libebml v1.3.5 + libmatroska v1.4.8

Video

ID : 1
Format : AVC
Format/Info : Advanced Video Codec
Format profile : High@L4.1
Format settings : CABAC / 4 Ref Frames
Format settings, CABAC : Yes
Format settings, ReFrames : 4 frames
Codec ID : V_MPEG4/ISO/AVC
Duration : 2 h 1 min
Bit rate mode : Variable
Bit rate : 28.6 Mb/s
Maximum bit rate : 31.0 Mb/s
Width : 1 920 pixels
Height : 1 080 pixels
Display aspect ratio : 16:9
Frame rate mode : Constant
Frame rate : 23.976 (24000/1001) FPS
Color space : YUV
Chroma subsampling : 4:2:0
Bit depth : 8 bits
Scan type : Progressive
Bits/(Pixel*Frame) : 0.575
Stream size : 24.2 GiB (86%)
Language : English
Default : Yes
Forced : No

Audio #1

ID : 2
Format : TrueHD
Format profile : TrueHD+Atmos / TrueHD
Codec ID : A_TRUEHD
Duration : 2 h 1 min
Bit rate mode : Variable
Bit rate : 3 918 kb/s
Maximum bit rate : 7 446 kb/s
Channel(s) : Object Based / 8 channels
Channel positions : Object Based / Front: L C R, Side: L R, Back: L R, LFE
Sampling rate : / 48.0 kHz
Frame rate : 1 200.000 FPS (40 SPF)
Compression mode : Lossless
Stream size : 3.32 GiB (12%)
Language : English
Default : Yes
Forced : No

Audio #2

ID : 3
Format : AC-3
Format/Info : Audio Coding 3
Codec ID : A_AC3
Duration : 2 h 1 min
Bit rate mode : Constant
Bit rate : 640 kb/s
Channel(s) : 6 channels
Channel positions : Front: L C R, Side: L R, LFE
Sampling rate : 48.0 kHz
Frame rate : 31.250 FPS (1536 SPF)
Bit depth : 16 bits
Compression mode : Lossy
Stream size : 555 MiB (2%)
Title : AC3 embedded
Language : English
Service kind : Complete Main
Default : No
Forced : No

Text #1

ID : 4
Format : PGS
Codec ID : S_HDMV/PGS
Codec ID/Info : Picture based subtitle format used on BDs/HD-DVDs
Duration : 1 h 54 min
Bit rate : 24.3 kb/s
Count of elements : 2532
Stream size : 19.9 MiB (0%)
Language : English
Default : No
Forced : No

Text #2

ID : 5
Format : PGS
Codec ID : S_HDMV/PGS
Codec ID/Info : Picture based subtitle format used on BDs/HD-DVDs
Duration : 1 h 54 min
Bit rate : 30.2 kb/s
Count of elements : 3072
Stream size : 24.7 MiB (0%)
Title : SDH
Language : English
Default : No
Forced : No

Text #3

ID : 6
Format : PGS
Codec ID : S_HDMV/PGS
Codec ID/Info : Picture based subtitle format used on BDs/HD-DVDs
Duration : 1 h 54 min
Bit rate : 18.8 kb/s
Count of elements : 2392
Stream size : 15.4 MiB (0%)
Language : French
Default : Yes
Forced : No

Text #4

ID : 7
Format : PGS
Codec ID : S_HDMV/PGS
Codec ID/Info : Picture based subtitle format used on BDs/HD-DVDs
Duration : 1 h 56 min
Bit rate : 22.1 kb/s
Count of elements : 2302
Stream size : 18.4 MiB (0%)
Title : Latin American
Language : Spanish
Default : No
Forced : No

Text #5

ID : 8
Format : PGS
Codec ID : S_HDMV/PGS
Codec ID/Info : Picture based subtitle format used on BDs/HD-DVDs
Duration : 1 h 56 min
Bit rate : 19.6 kb/s
Count of elements : 2320
Stream size : 16.3 MiB (0%)
Title : Brazilian
Language : Portuguese
Default : No
Forced : No

Menu

00:00:00.000 : en:00:00:00.000
00:06:22.507 : en:00:06:22.507
00:10:21.079 : en:00:10:21.079
00:15:59.500 : en:00:15:59.500
00:21:37.922 : en:00:21:37.922
00:24:59.415 : en:00:24:59.415
00:31:31.056 : en:00:31:31.056
00:38:29.224 : en:00:38:29.224
00:44:57.028 : en:00:44:57.028
00:49:35.764 : en:00:49:35.764
00:53:43.303 : en:00:53:43.303
01:02:19.694 : en:01:02:19.694
01:08:24.809 : en:01:08:24.809
01:16:52.191 : en:01:16:52.191
01:20:30.909 : en:01:20:30.909
01:28:26.885 : en:01:28:26.885
01:38:08.716 : en:01:38:08.716
01:45:52.638 : en:01:45:52.638
01:49:48.624 : en:01:49:48.624
01:56:21.183 : en:01:56:21.183